Enable / Włącz Javascript
 Widok 
 Kategorie 
 Nitro Torrent w sieci 
 Top 10 użytkowników 
 The Flying Swords of Dragon Gate (2011) 3D [BDRip x264 HOU DTS][Napisy PL-ENG][Chinese][Kino Azja]

The Flying Swords of Dragon Gate (2011) 3D [BDRip x264 HOU DTS][Napisy PL-ENG][Chinese][Kino Azja]
Kategoria: » » »
Dodane: 03/10/2017
Rozmiar: 4.41 GB
Uploader: tomysparow559 (10)
seed(ów): 0
leecher(ów): 0
Pobrane: -
Komentarzy: 0
Pobierz Torrent Pobierz Torrent
Pobierz [Magnet] Pobierz [Magnet]

Obserwuj
Raportuj
[Oryginalny obrazek]
[Oryginalny obrazek]

Uwaga!!!!!! Wysyłam do 10-ciu pełnych i usuwam torrenta!!!!
Dosyć mam pijawek!!!!!!

Film w wersji 3D --H/OU.

The file containing - sample!!!
Plik zawiera - sample !!!

Wstawka na Prośbę Kolegi.

czas trwania: 2 godz. 1 min.
gatunek: Przygodowy, Akcja
premiera: 22 grudnia 2011 (świat), 2011-12-22
produkcja: Chiny
reżyseria: Hark Tsui
scenariusz: Hark Tsui
muzyka: Wai Lap Wu
zdjęcia: Sung Fai Choi

Opis Filmu:

The film is set in the Ming Dynasty. avid
eunuch authority intends to take control of China, killing
family's most important challenger to the throne. Jet Li plays
the character of the general who is faced with an army of black
character.

Akcja filmu rozgrywa się w czasach dynastii Ming. Żądny
władzy eunuch zamierza przejąć kontrolę nad Chinami, mordując
rodzinę najważniejszego pretendenta do tronu. Jet Li wciela
się w postać generała muszącego zmierzyć się z armią czarnego
charakteru.

[Oryginalny obrazek]
[Oryginalny obrazek]
[Oryginalny obrazek]
[Oryginalny obrazek]
[Oryginalny obrazek]
[Oryginalny obrazek]

Obsada:

Jet Li Chow... Wai-On
Xun Zhou...... Jade
Siu-Wong...... Fan Jin Xiangyu

Dane Techniczne:

The Flying Swords of Dragon Gate (2011)3D-alE13.mkv
Format : Matroska
Format version : Version 2
File size : 4.35 GiB
Duration : 2h 5mn
Overall bit rate : 4 987 Kbps
Movie name : The Flying Swords of Dragon Gate (2011)3D-alE13_AT-TEAM
Encoded date : UTC 2013-04-07 13:15:41
Writing application : mkvmerge v5.8.0
Writing library : libebml v1.2.3 + libmatroska v1.3.0

Video
ID : 1
Format : AVC
Format/Info : Advanced Video Codec
Format profile : High@L4.0
Format settings, CABAC : Yes
Format settings, ReFrames : 2 frames
Muxing mode : Header stripping
Codec ID : V_MPEG4/ISO/AVC
Duration : 2h 5mn
Bit rate : 3 500 Kbps
Width : 1 920 pixels
Height : 1 080 pixels
Display aspect ratio : 16:9
Frame rate mode : Constant
Frame rate : 23.976 fps
Color space : YUV
Chroma subsampling : 4:2:0
Bit depth : 8 bits
Scan type : Progressive
Bits/(Pixel*Frame) : 0.070
Stream size : 2.95 GiB (68%)
Title : The Flying Swords of Dragon Gate (2011)3D Rip.-alE13
Writing library : x264 core 112 r1834 a51816a

Audio
ID : 2
Format : DTS
Format/Info : Digital Theater Systems
Mode : 16
Format settings, Endianness : Big
Muxing mode : Header stripping
Codec ID : A_DTS
Duration : 2h 5mn
Bit rate mode : Constant
Bit rate : 1 509 Kbps
Channel(s) : 6 channels
Channel positions : Front: L C R, Side: L R, LFE
Sampling rate : 48.0 KHz
Bit depth : 16 bits
Compression mode : Lossy
Delay relative to video : 12ms
Stream size : 1.32 GiB (30%)
Title : The Flying Swords of Dragon Gate (2011)3D_DTS
Language : Chinese

Text #1
ID : 3
Format : VobSub
Muxing mode : zlib
Codec ID : S_VOBSUB
Codec ID/Info : The same subtitle format used on DVDs
Language : Polish

Text #2
ID : 4
Format : VobSub
Muxing mode : zlib
Codec ID : S_VOBSUB
Codec ID/Info : The same subtitle format used on DVDs
Title : The Flying Swords of Dragon Gate (2011)
Language : Polish

Text #3
ID : 5
Format : VobSub
Muxing mode : zlib
Codec ID : S_VOBSUB
Codec ID/Info : The same subtitle format used on DVDs
Title : The Flying Swords of Dragon Gate (2011)3D
Language : English


Menu
00:00:00.000 : :00:00:00.000
00:09:23.480 : :00:09:23.480
00:20:15.631 : :00:20:15.631
00:28:36.965 : :00:28:36.965
00:41:07.799 : :00:41:07.799
00:50:50.965 : :00:50:50.965
01:02:35.794 : :01:02:35.794
01:11:14.187 : :01:11:14.187
01:20:10.931 : :01:20:10.931
01:31:03.500 : :01:31:03.500
01:44:52.453 : :01:44:52.453
01:53:34.224 : :01:53:34.224



Dostępne napisy
Brak napisów
Szczegóły torrenta
Tracker http://fr33dom.h33t.com:3310/announce
Multitracker [ Pokaż ]
Kategoria: » » » [Zgłoś błąd]
Dodane 03-10-2017
Podziękowali:
0 użytkowników 
Podziękuj!
Pokaż / Ukryj pliki:
Nazwa pliku Rozmiar
sub/Flying Swords of Dragon Gate (2011)3D-alE13_pl.sub 10.26 MB
sub/Flying Swords Of Dragon Gate 3D(2011)-alE13_eng.sub 9.55 MB
sub/Flying Swords of Dragon Gate (2011)3D-alE13_pl.srt 101.96 KB
sub/Flying Swords Of Dragon Gate 3D(2011)-alE13_eng.srt 88.77 KB
sub/Flying Swords of Dragon Gate (2011)3D-alE13_pl.idx 70.03 KB
sub/Flying Swords Of Dragon Gate 3D(2011)-alE13_eng.idx 53.07 KB
The Flying Swords of Dragon Gate (2011) 3D-alE13.mkv 4.35 GB
Sample.mkv 30.62 MB
1.jpeg 326.52 KB
alE1300007.jpg 305.52 KB
Txt.jpg 191.50 KB
Nostalgie11.jpg 185.84 KB
2.jpg 180.01 KB
alE1300008.jpg 147.92 KB
alE1300009.jpg 99.81 KB
alE1300010.jpg 91.79 KB
alE1300006.jpg 73.09 KB
Flying Swords Of Dragon Gate 3D(2011)_eng 1.txt 1.30 KB
Torrent downloaded from alE13 torrents at BTScene.org.txt 0.12 KB
19 plików
Brak komentarzy...
Read more | Más detalles | EMLA Creme 30 g PZN235016