Enable / Włącz Javascript
 Widok 
 Kategorie 
 Nitro Torrent w sieci 
 Top 10 użytkowników 
 Tango One *2018* [WEB-DL.x264-FGT] [ENG]

Tango One *2018* [WEB-DL.x264-FGT] [ENG]
Kategoria: » » »
Dodane: 07/03/2018
Rozmiar: 1.06 GB
Uploader: feldfebel1 (13)
seed(ów): 160
leecher(ów): 91
Pobrane: 47
Komentarzy: 0
Pobierz Torrent Pobierz Torrent
Pobierz [Magnet] Pobierz [Magnet]

Obserwuj
Raportuj
Info

Produkcja: Wielka Brytania
Gatunek: Dramat, Kryminał
Czas trwania: 112 min.
Premiera: 06.03.2018 - Świat
Reżyseria: Sacha Bennett
Scenariusz: Sacha Bennett, William Campbell, Stephen Leather


Opis

Bezwzględny kryminalista szuka odkupienia po doświadczeniu zdrady ze strony bliskich.


Obsada

Vincent Regan,
Sophie Colquhoun,
Enrique Arce,
Joseph Millson


Dane Techniczne

Video
ID : 1
Format : AVC
Format/Info : Advanced Video Codec
Format profile : High@L3.1
Format settings : CABAC / 5 Ref Frames
Format settings, CABAC : Yes
Format settings, ReFrames : 5 frames
Codec ID : avc1
Codec ID/Info : Advanced Video Coding
Duration : 1 h 52 min
Bit rate : 1 100 kb/s
Width : 720 pixels
Height : 304 pixels
Display aspect ratio : 2.40:1
Frame rate mode : Constant
Frame rate : 23.976 (24000/1001) FPS
Color space : YUV
Chroma subsampling : 4:2:0
Bit depth : 8 bits
Scan type : Progressive
Bits/(Pixel*Frame) : 0.210
Stream size : 875 MiB (81%)
Title : Tango.One.2018.WEB-DL.x264-FGT
Language : English

Audio
ID : 2
Format : AAC
Format/Info : Advanced Audio Codec
Format profile : LC
Codec ID : mp4a-40-2
Duration : 1 h 52 min
Duration_LastFrame : -11 ms
Bit rate mode : Constant
Bit rate : 256 kb/s
Channel(s) : 2 channels
Channel positions : Front: L R
Sampling rate : 48.0 kHz
Frame rate : 46.875 FPS (1024 SPF)
Compression mode : Lossy
Stream size : 205 MiB (19%)
Title : Tango.One.2018.WEB-DL.x264-FGT
Language : English
Default : Yes
Alternate group : 1
Dostępne napisy
Brak napisów
Szczegóły torrenta
Tracker http://tracker.trackerfix.com:80/announce
Multitracker [ Pokaż ]
Kategoria: » » » [Zgłoś błąd]
Dodane 07-03-2018
Podziękowali:
0 użytkowników 
Podziękuj!
Pokaż / Ukryj pliki:
Nazwa pliku Rozmiar
RARBG.txt 0.03 KB
Tango.One.2018.WEB-DL.x264-FGT.mp4 1.06 GB
2 plików
Brak komentarzy...
Identity theft | Coldplay - Hymn For The Weekend. | no7 protect perfect intense advanced eye cream, day, night cream or hand cream