Enable / Włącz Javascript
 Widok 
 Kategorie 
 Nitro Torrent w sieci 
 Top 10 użytkowników 
 Sanctum 3D (2011) [HSBS] [BDRip x264 DTS] [Napisy PL]

Sanctum 3D (2011) [HSBS] [BDRip x264 DTS] [Napisy PL]
Kategoria: » » »
Dodane: 03/10/2017
Rozmiar: 3.75 GB
Uploader: tomysparow559 (10)
seed(ów): 0
leecher(ów): 0
Pobrane: -
Komentarzy: 0
Pobierz Torrent Pobierz Torrent
Pobierz [Magnet] Pobierz [Magnet]

Obserwuj
Raportuj
[Oryginalny obrazek]
[Oryginalny obrazek]

Please help in Seeding. THX.

Film 3D w wersji - HSBS

gatunek: Dramat, Przygodowy, Thriller,
produkcja: Australia, USA,
premiera: 4 lutego 2011 (Polska) 2011-02-04 3 lutego 2011 (świat) 2011-02-03
reżyseria: Alister Grierson,
scenariusz: John Garvin, Andrew Wight,
muzyka: David Hirschfelder
zdjęcia: Jules O'Loughlin

Opis Filmu:

An underwater cave diving team experiences a life-threatening crisis during an expedition to the unexplored and least accessible cave system in the world.

Grupa płetwonurków wyrusza na ekspedycję do największego systemu jaskiń na świecie. To ostatnie nieodkryte miejsce, nazywane matką wszystkich jaskiń. Zabójcze piękno głębin kryje w sobie wielkie niebezpieczeństwo – jeden błąd może spowodować nieodwracalne skutki. Nikt nie dowie się, że ktokolwiek, kiedykolwiek tam był. Kiedy tropikalna burza zmusi ich do zejścia coraz niżej, rozpocznie się walka z szalejącym żywiołem, niebezpiecznym terenem i panicznym strachem. Czy przetrwają i znajdą drogę do morza, czy zostaną uwięzieni w jaskiniach na zawsze?

[Oryginalny obrazek]
[Oryginalny obrazek]
[Oryginalny obrazek]
[Oryginalny obrazek]
[Oryginalny obrazek]
[Oryginalny obrazek]

Obsada:

Richard Roxburgh ... Frank McGuire
Ioan Gruffudd ... Carl Hurley
Rhys Wakefield ... Josh McGuire
Alice Parkinson ... Victoria Elaine

Dane Techniczne:

Sanctum 3D (2011)-alE13.mkv
Format : Matroska
File size : 3.74 GiB
Duration : 1h 48mn
Overall bit rate : 4 924 Kbps
Movie name : Sanctum 3D (2011)-alE13
Encoded date : UTC 2013-02-03 06:27:20
Writing application : mkvmerge v5.8.0
Writing library : libebml v1.2.3 + libmatroska v1.3.0

Video
ID : 1
Format : AVC
Format/Info : Advanced Video Codec
Format profile : Main@L4.0
Format settings, CABAC : Yes
Format settings, ReFrames : 2 frames
Muxing mode : Container profile=Unknown@4.0
Codec ID : V_MPEG4/ISO/AVC
Duration : 1h 48mn
Bit rate : 3 317 Kbps
Nominal bit rate : 3 500 Kbps
Width : 1 920 pixels
Height : 1 080 pixels
Display aspect ratio : 16:9
Frame rate mode : Variable
Frame rate : 24.000 fps
Color space : YUV
Chroma subsampling : 4:2:0
Bit depth : 8 bits
Scan type : Progressive
Bits/(Pixel*Frame) : 0.067
Stream size : 2.52 GiB (67%)
Writing library : x264 core 112 r1834 a51816a

Audio
ID : 2
Format : DTS
Format/Info : Digital Theater Systems
Muxing mode : Header stripping
Codec ID : A_DTS
Duration : 1h 48mn
Bit rate mode : Constant
Bit rate : 1 510 Kbps
Channel(s) : 6 channels
Channel positions : Front: L C R, Side: L R, LFE
Sampling rate : 48.0 KHz
Bit depth : 16 bits
Video delay : 11ms
Stream size : 1.15 GiB (31%)
Language : English

Text #1
ID : 3
Format : VobSub
Codec ID : S_VOBSUB
Codec ID/Info : The same subtitle format used on DVDs
Language : Polish

Text #2
ID : 4
Format : VobSub
Codec ID : S_VOBSUB
Codec ID/Info : The same subtitle format used on DVDs
Language : Polish



Dostępne napisy
Brak napisów
Szczegóły torrenta
Tracker http://fr33dom.h33t.com:3310/announce
Multitracker [ Pokaż ]
Kategoria: » » » [Zgłoś błąd]
Dodane 03-10-2017
Podziękowali:
0 użytkowników 
Podziękuj!
Pokaż / Ukryj pliki:
Nazwa pliku Rozmiar
SUB/Sanctum (2011)-alE13.sub 7.97 MB
SUB/Sanctum (2011)-alE13.srt 64.44 KB
SUB/Sanctum (2011)-alE13.idx 41.16 KB
SUB/alE13.sub 10.00 KB
SUB/alE13.idx 1.08 KB
SUB/alE13.srt 0.11 KB
Sanctum 3D (2011)-alE13.mkv 3.74 GB
1.jpg 142.79 KB
vlcsnap-2013-02-03-06h54m57s251.jpg 130.90 KB
vlcsnap-2013-02-03-06h55m19s224.jpg 94.64 KB
vlcsnap-2013-02-03-06h55m03s96.jpg 88.85 KB
vlcsnap-2013-02-03-06h55m26s37.jpg 86.41 KB
sanctum.jpg 76.85 KB
Torrent downloaded from alE13 torrents at BTScene.eu.txt 0.12 KB
Torrent downloaded from alE13 torrents on BTScene.eu.txt 0.06 KB
15 plików
Brak komentarzy...
Gintama (2015) (51) | Prince of Stride: Alternative | Ugreen (43)