Enable / Włącz Javascript
 Widok 
 Kategorie 
 Nitro Torrent w sieci 
 Top 10 użytkowników 
 Królestwo Zwierząt - Animal Kingdom *2016* S03E10-13 [WEBRip] [x264-TBS] [Napisy PL]

Królestwo Zwierząt - Animal Kingdom *2016* S03E10-13 [WEBRip] [x264-TBS] [Napisy PL]
Kategoria: » » » »
Dodane: 11/12/2018
Rozmiar: 1.34 GB
Uploader: tomysparow559 (10)
seed(ów): 10
leecher(ów): 11
Pobrane: 34
Komentarzy: 0
Pobierz Torrent Pobierz Torrent
Pobierz [Magnet] Pobierz [Magnet]

Obserwuj
Raportuj
==================
...::: INFO :::...
==================

Gatunek: Kryminał, Dramat
Produkcja: USA
Stacja telewizyjna: TNT
Data premiery serialu: 14.06.2016 - Świat
Czas trwania odcinka około 50 min.
Twórcy: Jonathan Lisco

==================
...::: OPIS :::...
==================

Animal Kingdom ? amerykański serial telewizyjny (dramat kryminalny) wyprodukowany przez John Wells Productions oraz Warner Horizon Television. Serial jest adaptacją filmu Królestwo zwierząt w reżyserii Davida Michôda.

Serial skupia się na 17-letnim Joshu, który po śmierci swoich rodziców przeprowadza się do krewnych w południowej Kalifornii. Rodzina nie należy do porządnych ludzi, prowadzą dziwne interesy niezgodne z prawem.

==============
...::: OBSADA :::...
==============

Finn Cole - Joshua "J" Cody
Shawn Hatosy - Andrew "Pope" Cody
Ellen Barkin - Janine "Smurf" Cody
Ben Robson - Craig Cody
Scott Speedman - Barry "Baz" Blackwell
Christina Ochoa - Renn Randall

=======================
...::: DANE TECHNICZNE :::...
=======================


Format                         : Matroska
Format version                 : Version 4
File size                      : 333 MiB
Duration                       : 44 min 33 s
Overall bit rate               : 1 044 kb/s
Encoded date                   : UTC 2018-08-01 01:33:37
Writing application            : mkvmerge v21.0.0 ('Tardigrades Will Inherit The Earth') 64-bit
Writing library                : libebml v1.3.5 + libmatroska v1.4.8

Video
ID                             : 1
Format                         : AVC
Format/Info                    : Advanced Video Codec
Format profile                 : High@L3.1
Format settings                : CABAC / 5 Ref Frames
Format settings, CABAC         : Yes
Format settings, ReFrames      : 5 frames
Codec ID                       : V_MPEG4/ISO/AVC
Duration                       : 44 min 33 s
Bit rate                       : 916 kb/s
Width                          : 720 pixels
Height                         : 404 pixels
Display aspect ratio           : 16:9
Frame rate mode                : Constant
Frame rate                     : 23.976 (24000/1001) FPS
Color space                    : YUV
Chroma subsampling             : 4:2:0
Bit depth                      : 8 bits
Scan type                      : Progressive
Bits/(Pixel*Frame)             : 0.131
Stream size                    : 292 MiB (88%)
Writing library                : x264 core 155 r2901 7d0ff22
Encoding settings              : cabac=1 / ref=5 / deblock=1:-3:-3 / analyse=0x3:0x113 / me=hex / subme=8 / psy=1 / psy_rd=1.00:0.15 / mixed_ref=1 / me_range=16 / chroma_me=1 / trellis=2 / 8x8dct=1 / cqm=0 / deadzone=21,11 / fast_pskip=1 / chroma_qp_offset=-3 / threads=13 / lookahead_threads=2 / sliced_threads=0 / nr=0 / decimate=1 / interlaced=0 / bluray_compat=0 / constrained_intra=0 / bframes=3 / b_pyramid=2 / b_adapt=2 / b_bias=0 / direct=3 / weightb=1 / open_gop=0 / weightp=2 / keyint=250 / keyint_min=23 / scenecut=40 / intra_refresh=0 / rc_lookahead=50 / rc=crf / mbtree=1 / crf=19.0 / qcomp=0.60 / qpmin=0 / qpmax=69 / qpstep=4 / ip_ratio=1.40 / aq=1:1.00
Language                       : English
Default                        : Yes
Forced                         : No
Color range                    : Limited
Matrix coefficients            : BT.709

Audio
ID                             : 2
Format                         : AAC LC
Format/Info                    : Advanced Audio Codec Low Complexity
Codec ID                       : A_AAC-2
Duration                       : 44 min 33 s
Bit rate                       : 126 kb/s
Channel(s)                     : 2 channels
Channel layout                 : L R
Sampling rate                  : 44.1 kHz
Frame rate                     : 43.066 FPS (1024 SPF)
Compression mode               : Lossy
Delay relative to video        : 8 ms
Stream size                    : 40.0 MiB (12%)
Language                       : English
Default                        : Yes
Forced                         : No

Text
ID                             : 3
Format                         : UTF-8
Codec ID                       : S_TEXT/UTF8
Codec ID/Info                  : UTF-8 Plain Text
Duration                       : 44 min 10 s
Bit rate                       : 96 b/s
Count of elements              : 858
Stream size                    : 31.1 KiB (0%)
Language                       : English
Default                        : No
Forced                         : No
Dostępne napisy
Brak napisów
Szczegóły torrenta
Tracker http://tracker2.itzmx.com:6961/announce
Multitracker [ Pokaż ]
Kategoria: » » » » [Zgłoś błąd]
Dodane 11-12-2018
Podziękowali:
0 użytkowników 
Podziękuj!
Pokaż / Ukryj pliki:
Nazwa pliku Rozmiar
! Chcesz mieć TO szybciej - zapraszamy-KLIK.url 0.11 KB
! Want YOU more -CLIK.url 0.11 KB
Zapraszamy-KLIK.url 0.11 KB
Animal.Kingdom.US.S03E13.WEBRip.x264-TBS.srt 25.99 KB
Animal.Kingdom.US.S03E11.WEBRip.x264-TBS.srt 29.81 KB
Animal.Kingdom.US.S03E10.WEBRip.x264-TBS.srt 33.89 KB
Animal.Kingdom.US.S03E12.WEBRip.x264-TBS.srt 38.11 KB
LoGo.png 202.81 KB
Animal.Kingdom.US.S03E11.WEBRip.x264-TBS.mkv 325.40 MB
Animal.Kingdom.US.S03E10.WEBRip.x264-TBS.mkv 332.64 MB
Animal.Kingdom.US.S03E13.WEBRip.x264-TBS.mkv 347.62 MB
Animal.Kingdom.US.S03E12.WEBRip.x264-TBS.mkv 362.64 MB
12 plików
Brak komentarzy...
Wo steckt Carmen Sandiego? | God Eater | Shirt Dresses