Enable / Włącz Javascript
 Widok 
 Kategorie 
 Nitro Torrent w sieci 
 Top 10 użytkowników 
 Johnny English: Nokaut - Johnny English Strikes Again 2018 [Ts-Cam.x264] [ENG] [R@KU]

Johnny English: Nokaut - Johnny English Strikes Again 2018 [Ts-Cam.x264] [ENG] [R@KU] Dla simplesoftpretzel.com
Kategoria: » » »
Dodane: 19/09/2018
Rozmiar: 446.90 MB
Uploader: R@KU (7)
seed(ów): 0
leecher(ów): 0
Pobrane: 119
Komentarzy: 0
Pobierz Torrent Pobierz Torrent
Pobierz [Magnet] Pobierz [Magnet]

Obserwuj
Raportuj
Info
Reżyseria: David Kerr

Scenariusz: William Davies

Produkcja: Tim Bevan, Eric Fellner, Chris Clark
Opis
Johnny English powraca! Nowa przygoda zaczyna się w momencie, w którym olbrzymi cyber-atak ujawnia wszystkich tajnych agentów Wielkiej Brytanii, a ich szef zapowiada, że to dopiero początek kłopotów.

Tajne służby mogą teraz liczyć tylko na niego ? Johnny?ego Englisha. Niedawno zdegradowany, prowadzi zajęcia w jednej ze szkół. To właśnie wtedy zostaje ponownie powołany na dawne stanowisko, by zdekonspirować przebiegłego hakera, który zagraża bezpieczeństwu państwa. Ale aby misja się udała, Johnny będzie musiał użyć wszystkich swoich umiejętności, cóż, w każdym razie tych, które ma. ?Analogowymi? metodami, które zna ze swej młodości, będzie musiał stawić czoła digitalnej technologii jutra.

W roli Johnny?ego Englisha ponownie zobaczymy mistrza komedii Rowana Atkinsona. U jego boku występują: laureatka Oscara? Emma Thompson, Olga Kurylenko, Ben Miller i Jake Lacy.
Obsada
Rowan Atkinson
Lucy liu
Emma Thompson
Dane Techniczne
General
Complete name               : D:torentydzony [R@KU]Johnny English Strikes Again 2018 New Src HD.TS.mkv.mp4
Format                      : MPEG-4
Format profile              : Base Media
Codec ID                    : isom (isom/iso2/avc1/mp41)
File size                   : 447 MiB
Duration                    : 1 h 23 min
Overall bit rate            : 746 kb/s
Movie name                  : Johnny English Strikes Again 2018 New Src HDCAM-x264-AC3-NeNi
Writing application         : Lavf57.83.100

Video
ID                          : 1
Format                      : AVC
Format/Info                 : Advanced Video Codec
Format profile              : High@L3.1
Format settings             : CABAC / 5 Ref Frames
Format settings, CABAC      : Yes
Format settings, ReFrames   : 5 frames
Codec ID                    : avc1
Codec ID/Info               : Advanced Video Coding
Duration                    : 1 h 23 min
Bit rate                    : 640 kb/s
Width                       : 720 pixels
Height                      : 404 pixels
Display aspect ratio        : 16:9
Frame rate mode             : Constant
Frame rate                  : 29.970 (30000/1001) FPS
Color space                 : YUV
Chroma subsampling          : 4:2:0
Bit depth                   : 8 bits
Scan type                   : Progressive
Bits/(Pixel*Frame)          : 0.073
Stream size                 : 385 MiB (86%)
Writing library             : x264 core 148 r2795 aaa9aa8
Encoding settings           : cabac=1 / ref=5 / deblock=1:0:0 / analyse=0x3:0x113 / me=hex / subme=7 / psy=1 / psy_rd=1.00:0.00 / mixed_ref=1 / me_range=16 / chroma_me=1 / trellis=1 / 8x8dct=1 / cqm=0 / deadzone=21,11 / fast_pskip=1 / chroma_qp_offset=-2 / threads=6 / lookahead_threads=6 / sliced_threads=1 / slices=6 / nr=0 / decimate=1 / interlaced=0 / bluray_compat=0 / constrained_intra=0 / bframes=0 / weightp=2 / keyint=250 / keyint_min=25 / scenecut=40 / intra_refresh=0 / rc=abr / mbtree=0 / bitrate=640 / ratetol=1.0 / qcomp=0.60 / qpmin=0 / qpmax=69 / qpstep=4 / ip_ratio=1.40 / aq=1:1.00
Codec configuration box     : avcC

Audio
ID                          : 2
Format                      : AAC LC
Format/Info                 : Advanced Audio Codec Low Complexity
Codec ID                    : mp4a-40-2
Duration                    : 1 h 23 min
Bit rate mode               : Constant
Bit rate                    : 96.0 kb/s
Channel(s)                  : 2 channels
Channel layout              : L R
Sampling rate               : 48.0 kHz
Frame rate                  : 46.875 FPS (1024 SPF)
Compression mode            : Lossy
Stream size                 : 57.7 MiB (13%)
Language                    : English
Default                     : Yes
Alternate group             : 1

Dostępne napisy
Brak napisów
Szczegóły torrenta
Tracker udp://tracker.openbittorrent.com:80/announce
Multitracker [ Pokaż ]
Kategoria: » » » [Zgłoś błąd]
Dodane 19-09-2018
Podziękowali:
0 użytkowników 
Podziękuj!
Pokaż / Ukryj pliki:
Nazwa pliku Rozmiar
Downloaded from simplesoftpretzel.com.txt 0.00 KB
Johnny English Strikes Again 2018 New Src HD.TS.mkv.mp4 446.90 MB
2 plików
Brak komentarzy...
Economics and Eco-tourism - 365 Words | Oscar Isaac | Chitpong Khattapong