Enable / Włącz Javascript
 Widok 
 Kategorie 
 Nitro Torrent w sieci 
 Top 10 użytkowników 
 Holmes i Watson - Holmes and Watson 2018 [HDCAM.x264.1XBET] [ENG] [R@KU]

Holmes i Watson - Holmes and Watson 2018 [HDCAM.x264.1XBET] [ENG] [R@KU] Dla simplesoftpretzel.com
Kategoria: » » »
Dodane: 11/01/2019
Rozmiar: 788.73 MB
Uploader: R@KU (7)
seed(ów): 1
leecher(ów): 3
Pobrane: 43
Komentarzy: 0
Pobierz Torrent Pobierz Torrent
Pobierz [Magnet] Pobierz [Magnet]

Obserwuj
Raportuj
Info
reżyseria: Etan Cohen
scenariusz: Etan Cohen
gatunek: KomediaPrzygodowy
produkcja: USA
premiera: 9 listopada 2018 (świat)
boxoffice: $35 413 749
Opis
Holmes and Watson to opowieść o przygodach Sherlocka Holmesa i doktora Watsona, którzy muszą rozwiązać sprawę kryminalną. Wszystko utrzymane jest w komediowym tonie, za który odpowiada Etan Cohen. Na koncie ma scenariusze do takich filmów jak Jaja w tropikach oraz Cienki Bolek.

W obsadzie są Will Ferrell, John C. Reilly, Rebecca Hall, Rob Brydon, Kelly Macdonald i Ralph Fienne. Etan Cohen wyreżyserował na podstawie własnego scenariusza.
Obsada
Will Ferrell
Kelly Macdonald
John C. Reilly
Dane Techniczne
General
Complete name                            : F:filmyholms[R@KU]Holmes.&.Watson.720p.HDCAM.1XBET.mp4
Format                                   : MPEG-4
Format profile                           : Base Media
Codec ID                                 : isom (isom/iso2/avc1/mp41)
File size                                : 789 MiB
Duration                                 : 1 h 25 min
Overall bit rate                         : 1 287 kb/s
Writing application                      : Lavf57.83.100

Video
ID                                       : 1
Format                                   : AVC
Format/Info                              : Advanced Video Codec
Format profile                           : High@L3.1
Format settings                          : CABAC / 5 Ref Frames
Format settings, CABAC                   : Yes
Format settings, RefFrames               : 5 frames
Codec ID                                 : avc1
Codec ID/Info                            : Advanced Video Coding
Duration                                 : 1 h 25 min
Bit rate                                 : 1 152 kb/s
Width                                    : 1 280 pixels
Height                                   : 536 pixels
Display aspect ratio                     : 2.40:1
Frame rate mode                          : Constant
Frame rate                               : 29.970 (30000/1001) FPS
Color space                              : YUV
Chroma subsampling                       : 4:2:0
Bit depth                                : 8 bits
Scan type                                : Progressive
Bits/(Pixel*Frame)                       : 0.056
Stream size                              : 705 MiB (89%)
Writing library                          : x264 core 148 r2795 aaa9aa8
Encoding settings                        : cabac=1 / ref=5 / deblock=1:0:0 / analyse=0x3:0x113 / me=hex / subme=7 / psy=1 / psy_rd=1.00:0.00 / mixed_ref=1 / me_range=16 / chroma_me=1 / trellis=1 / 8x8dct=1 / cqm=0 / deadzone=21,11 / fast_pskip=1 / chroma_qp_offset=-2 / threads=8 / lookahead_threads=8 / sliced_threads=1 / slices=8 / nr=0 / decimate=1 / interlaced=0 / bluray_compat=0 / constrained_intra=0 / bframes=0 / weightp=2 / keyint=250 / keyint_min=25 / scenecut=40 / intra_refresh=0 / rc=abr / mbtree=0 / bitrate=1152 / ratetol=1.0 / qcomp=0.60 / qpmin=0 / qpmax=69 / qpstep=4 / ip_ratio=1.40 / aq=1:1.00
Codec configuration box                  : avcC

Audio
ID                                       : 2
Format                                   : AAC LC
Format/Info                              : Advanced Audio Codec Low Complexity
Codec ID                                 : mp4a-40-2
Duration                                 : 1 h 25 min
Duration_LastFrame                       : -11 ms
Bit rate mode                            : Constant
Bit rate                                 : 129 kb/s
Channel(s)                               : 2 channels
Channel layout                           : L R
Sampling rate                            : 48.0 kHz
Frame rate                               : 46.875 FPS (1024 SPF)
Compression mode                         : Lossy
Stream size                              : 79.1 MiB (10%)
Default                                  : Yes
Alternate group                          : 1

Dostępne napisy
Brak napisów
Szczegóły torrenta
Tracker udp://tracker.opentrackr.org:1337/announce
Multitracker [ Pokaż ]
Kategoria: » » » [Zgłoś błąd]
Dodane 11-01-2019
Podziękowali:
0 użytkowników 
Podziękuj!
Pokaż / Ukryj pliki:
Nazwa pliku Rozmiar
Downloaded from simplesoftpretzel.com.txt.txt 0.00 KB
Holmes.&.Watson.720p.HDCAM.1XBET.mp4 788.73 MB
2 plików
Brak komentarzy...
Fresh Tie-wrap Bow Tie Collar Solid Blouse | HD Purdah (Hindi) | Cát Vệ Sinh Cho Mèo VanCat 7L Hương Phấn Thơm