Enable / Włącz Javascript
 Widok 
 Kategorie 
 Nitro Torrent w sieci 
 Top 10 użytkowników 
 Gun Shy *2017* [720p.BluRay.x264.DTS-MT] [ENG]

Gun Shy *2017* [720p.BluRay.x264.DTS-MT] [ENG]
Kategoria: » » »
Dodane: 03/11/2017
Rozmiar: 4.58 GB
Uploader: feldfebel1 (13)
seed(ów): 141
leecher(ów): 42
Pobrane: 47
Komentarzy: 0
Pobierz Torrent Pobierz Torrent
Pobierz [Magnet] Pobierz [Magnet]

Obserwuj
Raportuj
Info

Gatunek: Akcja
Premiera: 8 września 2017 (świat)
Reżyseria: Simon West
Scenariusz: Toby Davies, Mark Haskell Smith


Opis

Film opowiada o starzejącym się rockmanie Turku Henrym, którego żona-supermodelka zostaje uprowadzona w czasie ich wakacji w Chile. Mężczyzna z godziny na godzinę musi porzucić swój wygodny styl życia i wyruszyć na poszukiwania ukochanej.


Obsada

? Antonio Banderas .... Turk Henry
? Olga Kurylenko .... Sheila
? Ben Cura .... Juan Carlos
? Mark Valley .... Ben Harding
? Aisling Loftus .... Marybeth
? Jeremy Swift .... Charlie
? Jesse Johnson .... Daniel


Dane Techniczne

Video
ID : 1
Format : AVC
Format/Info : Advanced Video Codec
Format profile : High@L4.1
Format settings, CABAC : Yes
Format settings, ReFrames : 12 frames
Codec ID : V_MPEG4/ISO/AVC
Duration : 1 h 31 min
Bit rate : 5 640 kb/s
Width : 1 280 pixels
Height : 536 pixels
Display aspect ratio : 2.40:1
Frame rate mode : Constant
Frame rate : 23.976 (24000/1001) FPS
Color space : YUV
Chroma subsampling : 4:2:0
Bit depth : 8 bits
Scan type : Progressive
Bits/(Pixel*Frame) : 0.343
Stream size : 3.61 GiB (79%)
Default : Yes
Forced : No

Audio
ID : 2
Format : DTS
Format/Info : Digital Theater Systems
Mode : 16
Format settings, Endianness : Big
Codec ID : A_DTS
Duration : 1 h 31 min
Bit rate mode : Constant
Bit rate : 1 509 kb/s
Channel(s) : 6 channels
Channel positions : Front: L C R, Side: L R, LFE
Sampling rate : 48.0 kHz
Frame rate : 93.750 FPS (512 spf)
Bit depth : 24 bits
Compression mode : Lossy
Stream size : 990 MiB (21%)
Title : English
Language : English
Default : Yes
Forced : No


Screenshot / Wideo

Dostępne napisy
Brak napisów
Szczegóły torrenta
Tracker http://tracker.trackerfix.com:80/announce
Multitracker [ Pokaż ]
Kategoria: » » » [Zgłoś błąd]
Dodane 03-11-2017
Podziękowali:
0 użytkowników 
Podziękuj!
Pokaż / Ukryj pliki:
Nazwa pliku Rozmiar
Gun.Shy.2017.720p.BluRay.x264.DTS-MT.mkv 4.58 GB
RARBG.txt 0.03 KB
2 plików
Brak komentarzy...
Constance Wu | Yvan Attal | あなたのAppを提出する