Enable / Włącz Javascript
 Widok 
 Kategorie 
 Nitro Torrent w sieci 
 Top 10 użytkowników 
 Crossbones S01E02 - The Covenant [720p WEB-DL H 264 DD5 1] [Napisy PL]

Crossbones S01E02 - The Covenant [720p WEB-DL H 264 DD5 1] [Napisy PL]
Kategoria: » » » »
Dodane: 03/10/2017
Rozmiar: 1.31 GB
Uploader: tomysparow559 (10)
seed(ów): 0
leecher(ów): 0
Pobrane: 1
Komentarzy: 0
Pobierz Torrent Pobierz Torrent
Pobierz [Magnet] Pobierz [Magnet]

Obserwuj
Raportuj
produkcja: USA
gatunek: Dramat, Przygodowy
reżyseria: David Slade, Daniel Attias, Ciaran Donnelly
scenariusz: Neil Cross, James V. Hart, Amanda Welles
zdjęcia: Christopher Baffa
czas trwania: ok. 43 min.

Opis:

Wyspa New Providence na Bahamach to miejsce, gdzie wyjętymi spod prawa piratami rządzi straszliwy kapitan Edward Teach, zwany Czarnobrodym. Tom Lowe podejmuje się misji zabicia Teacha. Jednak im bliżej poznaje herszta piratów, tym bardziej wątpi w słuszność swojego zadania.

Obsada:

John Malkovich - Edward "Czarnobrody" Teach
Richard Coyle - Tom Lowe
Claire Foy - Kate
Tracy Ifeachor - Nenna
David Hoflin - Charles Vane
Yasmine Al Massri - Selma
Nick Blaemire - Staines
Ezra Buzzington - Eisengrim

Dane techniczne:

Format : Matroska
Format version : Version 4 / Version 2
File size : 1.31 GiB
Duration : 42mn 57s
Overall bit rate : 4 350 Kbps

Video
ID : 1
Format : AVC
Format/Info : Advanced Video Codec
Format profile : High@L3.1
Format settings, CABAC : No
Format settings, ReFrames : 2 frames
Codec ID : V_MPEG4/ISO/AVC
Duration : 42mn 57s
Bit rate : 3 880 Kbps
Width : 1 280 pixels
Height : 720 pixels
Display aspect ratio : 16:9
Frame rate mode : Constant
Frame rate : 23.976 fps
Color space : YUV
Chroma subsampling : 4:2:0
Bit depth : 8 bits
Scan type : Progressive
Bits/(Pixel*Frame) : 0.176
Stream size : 1.16 GiB (89%)
Color primaries : BT.709
Transfer characteristics : BT.709
Matrix coefficients : BT.709

Audio
ID : 2
Format : AC-3
Format/Info : Audio Coding 3
Mode extension : CM (complete main)
Format settings, Endianness : Big
Codec ID : A_AC3
Duration : 42mn 57s
Bit rate mode : Constant
Bit rate : 384 Kbps
Channel(s) : 6 channels
Channel positions : Front: L C R, Side: L R, LFE
Sampling rate : 48.0 KHz
Bit depth : 16 bits
Compression mode : Lossy
Stream size : 118 MiB (9%)
Language : English

Text
ID : 3
Format : UTF-8
Codec ID : S_TEXT/UTF8
Codec ID/Info : UTF-8 Plain Text
Language : Polish

Dostępne napisy
Brak napisów
Szczegóły torrenta
Tracker http://tracker.torrenty.org:6969/announce
Multitracker [ Pokaż ]
Kategoria: » » » » [Zgłoś błąd]
Dodane 03-10-2017
Podziękowali:
0 użytkowników 
Podziękuj!
Pokaż / Ukryj pliki:
Nazwa pliku Rozmiar
Crossbones S01E02 - The Covenant [720p.WEB-DL.H.264.DD5.1] [Napisy PL].mkv 1.31 GB
Crossbones S01E02 - The Covenant [720p.WEB-DL.H.264.DD5.1] [Napisy PL].srt 34.39 KB
2 plików
Brak komentarzy...
back to subtitle list | [HorribleSubs] Black Clover - 58 [480p] | One Piece 552