Enable / Włącz Javascript
 Widok 
 Kategorie 
 Nitro Torrent w sieci 
 Top 10 użytkowników 
 BFG: Bardzo Fajny Gigant The BFG *2016* [HDCAM.x264-VAiN] [ENG]

BFG: Bardzo Fajny Gigant The BFG *2016* [HDCAM.x264-VAiN] [ENG]
Kategoria: » » »
Dodane: 03/10/2017
Rozmiar: 1.55 GB
Uploader: simplesoftpretzel.com❱ Wędrowiec
seed(ów): 0
leecher(ów): 0
Pobrane: 1
Komentarzy: 0
Pobierz Torrent Pobierz Torrent
Pobierz [Magnet] Pobierz [Magnet]

Obserwuj
Raportuj
Tytuł: The BFG / BFG: Bardzo Fajny Gigant
Ocena: IMDB - 7.1/10 (3243), Filmweb - 5.6/10 (42)
Produkcja: Kanada, USA, Wielka Brytania
Gatunek: Familijny, Fantasy
Czas trwania: 115 min.
Premiera: 01.07.2016 - Polska, 14.05.2016 - Świat
Reżyseria: Steven Spielberg
Scenariusz: Melissa Mathison


Mark Rylance,
Ruby Barnhill,
Penelope Wilton,
Jemaine Clement


Porywająca opowieść o małej dziewczynce i tajemniczym Olbrzymie, który odkrywa przed nią cuda i sekrety magicznej krainy. (filmweb.pl)


Basic Information
Format : Matroska
Format version : Version 4 / Version 2
File size : 1.54 GiB
Duration : 1h 52mn
Overall bit rate mode : Variable
Overall bit rate : 1 962 Kbps
Encoded date : UTC 2016-07-09 17:20:49
Writing application : mkvmerge v8.3.0 ('Over the Horizon') 64bit
Writing library : libebml v1.3.1 + libmatroska v1.4.2

Video
ID : 1
Format : AVC
Format/Info : Advanced Video Codec
Format profile : [email protected]
Format settings, CABAC : Yes
Format settings, ReFrames : 3 frames
Codec ID : V_MPEG4/ISO/AVC
Duration : 1h 52mn
Bit rate mode : Variable
Bit rate : 1 640 Kbps
Maximum bit rate : 40.0 Mbps
Width : 720 pixels
Height : 352 pixels
Display aspect ratio : 2.045
Frame rate mode : Constant
Frame rate : 29.940 fps
Color space : YUV
Chroma subsampling : 4:2:0
Bit depth : 8 bits
Scan type : Progressive
Bits/(Pixel*Frame) : 0.216
Stream size : 1.29 GiB (84%)
Writing library : x264 core 148 r2692 64f4e24

Language : English
Default : Yes
Forced : No
Color range : Full
Color primaries : BT.709
Transfer characteristics : BT.709
Matrix coefficients : BT.709

Audio
ID : 2
Format : MPEG Audio
Format version : Version 1
Format profile : Layer 3
Mode : Joint stereo
Mode extension : MS Stereo
Codec ID : A_MPEG/L3
Codec ID/Hint : MP3
Duration : 1h 52mn
Bit rate mode : Constant
Bit rate : 320 Kbps
Channel(s) : 2 channels
Sampling rate : 48.0 KHz
Frame rate : 41.667 fps (1152 spf)
Compression mode : Lossy
Stream size : 257 MiB (16%)
Language : English
Default : Yes
Forced : No


E N C O D E R S . N O T E S . . .

SOURCE......: ViDEO...THEBFG
............: AUDiO...CPG
SAMPLE......: Yippers
ADDED NOTE..: sumn very nice poo. HDCAM is pretty good, audio is very nice for cam.
as usual took the ol' poo-shine and polished up this turd...

Dostępne napisy
Brak napisów
Szczegóły torrenta
Tracker udp://tracker.coppersurfer.tk:6969/announce
Multitracker [ Pokaż ]
Kategoria: » » » [Zgłoś błąd]
Dodane 03-10-2017
Podziękowali:
0 użytkowników 
Podziękuj!
Pokaż / Ukryj pliki:
Nazwa pliku Rozmiar
The.BFG.2016.HDCAM.x264-VAiN.mkv 1.54 GB
Torrent Downloaded From ExtraTorrent.cc.txt 0.33 KB
VAiN.nfo 3.29 KB
sample.mkv 13.07 MB
4 plików
Brak komentarzy...
Nonverbal Communication as a Barrier of Intercultural Communication | Bilderrahmen in Scagliola Technik | Il Padrino (1972)