Enable / Włącz Javascript
 Widok 
 Kategorie 
 Nitro Torrent w sieci 
 Top 10 użytkowników 
 Bez litości 2-The.Equalizer.2. *2018* [1080p] [WEB-DL] [DD5.1] [H264-FGT] [ENG]

Bez litości 2-The.Equalizer.2. *2018* [1080p] [WEB-DL] [DD5.1] [H264-FGT] [ENG]
Kategoria: » » »
Dodane: 30/10/2018
Rozmiar: 4.15 GB
Uploader: zibi6248 (2)
seed(ów): 9574
leecher(ów): 9964
Pobrane: 385
Komentarzy: 0
Pobierz Torrent Pobierz Torrent
Pobierz [Magnet] Pobierz [Magnet]

Obserwuj
Raportuj
[_st_info]

Produkcja: USA
Gatunek: Thriller, Akcja
Premiera: 31 sierpnia 2018 (Polska), 18 lipca 2018 (świat)
Reżyseria: Antoine Fuqua
Scenariusz: Richard Wenk
http://www.youtube.com/watch?v=VEhc1psTqkY

[_st_opis]

Emerytowany tajny agent Robert McCall (Denzel Washington) powraca, by w wyszukany, charakterystyczny dla siebie sposób, walczyć o sprawiedliwość. Jest nieustraszony, inteligentny, a jego sprawność fizyczna sprawia, że dostaje to, czego chce. A chce sprawiedliwości.

[_st_obsada]

? Denzel Washington .... Robert McCall
? Pedro Pascal .... Dave York
? Ashton Sanders .... Miles Whittaker
? Orson Bean .... Sam Rubinstein
? Bill Pullman .... Brian Plummer
? Melissa Leo .... Susan Plummer
? Jonathan Scarfe .... Resnick
? Sakina Jaffrey .... Fatima

[_st_dane]

Video
ID : 1
Format : AVC
Format/Info : Advanced Video Codec
Format profile : High@L4
Format settings : CABAC / 5 Ref Frames
Format settings, CABAC : Yes
Format settings, ReFrames : 5 frames
Codec ID : V_MPEG4/ISO/AVC
Duration : 2 h 1 min
Bit rate : 4 518 kb/s
Width : 1 920 pixels
Height : 796 pixels
Display aspect ratio : 2.40:1
Frame rate mode : Constant
Frame rate : 23.976 FPS
Color space : YUV
Chroma subsampling : 4:2:0
Bit depth : 8 bits
Scan type : Progressive
Bits/(Pixel*Frame) : 0.123
Stream size : 3.82 GiB (92%)
Title : The.Equalizer.2.2018.1080p.WEB-DL.DD5.1.H264-FGT
Language : English
Default : Yes
Forced : No
Color range : Limited
Color primaries : BT.709
Transfer characteristics : BT.709
Matrix coefficients : BT.709

Audio
ID : 2
Format : AC-3
Format/Info : Audio Coding 3
Commercial name : Dolby Digital
Codec ID : A_AC3
Duration : 2 h 0 min
Bit rate mode : Constant
Bit rate : 384 kb/s
Channel(s) : 6 channels
Channel layout : L R C LFE Ls Rs
Sampling rate : 48.0 kHz
Frame rate : 31.250 FPS (1536 SPF)
Bit depth : 16 bits
Compression mode : Lossy
Stream size : 332 MiB (8%)
Title : The.Equalizer.2.2018.1080p.WEB-DL.DD5.1.H264-FGT
Language : English
Service kind : Complete Main
Default : Yes
Forced : No

Text #1
ID : 3
Format : UTF-8
Codec ID : S_TEXT/UTF8
Codec ID/Info : UTF-8 Plain Text
Duration : 41 min 15 s
Bit rate : 0 b/s
Count of elements : 11
Stream size : 192 Bytes (0%)
Title : FORCED
Language : English
Default : Yes
Forced : Yes

Text #2
ID : 4
Format : UTF-8
Codec ID : S_TEXT/UTF8
Codec ID/Info : UTF-8 Plain Text
Duration : 1 h 52 min
Bit rate : 38 b/s
Count of elements : 1032
Stream size : 31.4 KiB (0%)
Language : English
Default : No
Forced : No

Menu
00:00:00.000 : en:1
00:06:49.034 : en:2
00:13:21.634 : en:3
00:16:42.459 : en:4
00:27:09.919 : en:5
00:34:04.458 : en:6
00:41:04.543 : en:7
00:47:07.613 : en:8
00:54:16.333 : en:9
01:02:16.813 : en:10
01:11:17.727 : en:11
01:18:38.125 : en:12
01:25:18.942 : en:13
01:31:39.238 : en:14
01:40:09.330 : en:15




Dostępne napisy
Brak napisów
Szczegóły torrenta
Tracker http://tracker.trackerfix.com:80/announce
Multitracker [ Pokaż ]
Kategoria: » » » [Zgłoś błąd]
Dodane 30-10-2018
Podziękowali:
0 użytkowników 
Podziękuj!
Pokaż / Ukryj pliki:
Nazwa pliku Rozmiar
English-FORCED.srt 0.60 KB
English.srt 71.66 KB
RARBG.txt 0.03 KB
The.Equalizer.2.2018.1080p.WEB-DL.DD5.1.H264-FGT.mkv 4.15 GB
4 plików
Brak komentarzy...
妖怪ロマンス~百鬼夜行の物語~ FightSong Inc. जल्द आ रहा है | SD Movies Point | Hot Sale Puff Sleeve Crop T-Shirt