Enable / Włącz Javascript
 Widok 
 Kategorie 
 Nitro Torrent w sieci 
 Top 10 użytkowników 
 Atomic Blonde *2017* [1080p.BluRay.x264.DTS-HDC] [ENG]

Atomic Blonde *2017* [1080p.BluRay.x264.DTS-HDC] [ENG]
Kategoria: » » »
Dodane: 03/11/2017
Rozmiar: 13.23 GB
Uploader: feldfebel1 (13)
seed(ów): 993
leecher(ów): 684
Pobrane: 54
Komentarzy: 0
Pobierz Torrent Pobierz Torrent
Pobierz [Magnet] Pobierz [Magnet]

Obserwuj
Raportuj
Info

Produkcja: Niemcy, Szwecja, USA
Gatunek: Thriller, Akcja
Premiera: 28 lipca 2017 (Polska), 12 marca 2017 (świat)
Reżyseria: David Leitch
Scenariusz: Kurt Johnstad


Opis

Berlin, czasy Zimnej Wojny. Brytyjska agentka zostaje przerzucona do komunistycznego Berlina w celu odnalezienia zabójców swojego partnera i odzyskania listy podwójnych agentów.


Obsada

? Charlize Theron .... Lorraine Broughton
? James McAvoy .... David Percival
? Eddie Marsan .... Spyglass
? John Goodman .... Emmett Kurzfeld
? Toby Jones .... Eric Gray
? James Faulkner .... Szef "C"
? Roland M?ller .... Aleksander Bremovych
? Sofia Boutella .... Delphine Lasalle


Dane Techniczne

Video
ID : 1
Format : AVC
Format/Info : Advanced Video Codec
Format profile : High@L4.1
Format settings, CABAC : Yes
Format settings, ReFrames : 5 frames
Codec ID : V_MPEG4/ISO/AVC
Duration : 1 h 54 min
Bit rate : 15.0 Mb/s
Width : 1 920 pixels
Height : 804 pixels
Display aspect ratio : 2.40:1
Frame rate mode : Constant
Frame rate : 23.976 (24000/1001) FPS
Color space : YUV
Chroma subsampling : 4:2:0
Bit depth : 8 bits
Scan type : Progressive
Bits/(Pixel*Frame) : 0.405
Stream size : 11.8 GiB (89%)
Title : Atomic.Blonde.2017.1080p.BluRay.x264.DTS-HDC
Default : Yes
Forced : No

Audio
ID : 2
Format : DTS
Format/Info : Digital Theater Systems
Mode : 16
Format settings, Endianness : Big
Codec ID : A_DTS
Duration : 1 h 54 min
Bit rate mode : Constant
Bit rate : 1 509 kb/s
Channel(s) : 6 channels
Channel positions : Front: L C R, Side: L R, LFE
Sampling rate : 48.0 kHz
Frame rate : 93.750 FPS (512 spf)
Bit depth : 24 bits
Compression mode : Lossy
Stream size : 1.21 GiB (9%)
Title : Atomic.Blonde.2017.1080p.BluRay.x264.DTS-HDC
Language : English
Default : Yes
Forced : No

Text
ID : 3
Format : UTF-8
Codec ID : S_TEXT/UTF8
Codec ID/Info : UTF-8 Plain Text
Language : English
Default : Yes
Forced : No


Screenshot / Wideo

Dostępne napisy
Brak napisów
Szczegóły torrenta
Tracker http://tracker.trackerfix.com:80/announce
Multitracker [ Pokaż ]
Kategoria: » » » [Zgłoś błąd]
Dodane 03-11-2017
Podziękowali:
0 użytkowników 
Podziękuj!
Pokaż / Ukryj pliki:
Nazwa pliku Rozmiar
Atomic.Blonde.2017.1080p.BluRay.x264.DTS-HDC.mkv 13.23 GB
English.srt 64.57 KB
RARBG.txt 0.03 KB
3 plików
Brak komentarzy...
Скачать | Mother’s Day Brunch | MV Bank Stardust