Enable / Włącz Javascript
 Widok 
 Kategorie 
 Nitro Torrent w sieci 
 Top 10 użytkowników 
 A Prayer Before Dawn *2017* [1080p.WEB-DL.DD5.1.H264-FGT] [ENG]

A Prayer Before Dawn *2017* [1080p.WEB-DL.DD5.1.H264-FGT] [ENG]
Kategoria: » » »
Dodane: 21/07/2018
Rozmiar: 4.03 GB
Uploader: feldfebel1 (13)
seed(ów): 2915
leecher(ów): 1000
Pobrane: 83
Komentarzy: 0
Pobierz Torrent Pobierz Torrent
Pobierz [Magnet] Pobierz [Magnet]

Obserwuj
Raportuj
Info

Produkcja: Chiny, Francja, USA, Wielka Brytania, Kambodża
Gatunek: Akcja
Premiera: 19 maja 2017 (świat)
Reżyseria: Jean-Stéphane Sauvaire
Scenariusz: Jonathan Hirschbein, Nick Saltrese


Opis

Moore to były brytyjski bokser, którego za młodu koleje losu zawiodły do Tajlandii, gdzie brał udział w amatorskich walkach, popadając jednocześnie w coraz większe uzależnienie od narkotyków. W efekcie, osadzony w lokalnym więzieniu, miał do wyboru poddanie się i czekanie na śmierć albo walkę o szacunek współwięźniów, a w dalszej kolejności o wolność. Trudności w komunikacji, związane z brakiem znajomości języka, stopniowo pokonywał na ringu podczas treningów boksu tajskiego. Początkowo wyśmiewany i wytykany palcami, swoją zawziętością oraz sumiennością zapracował na to, by zostać zaakceptowany - będąc na początku swojej długiej, pełnej wybojów drogi do odkupienia.


Obsada

? Joe Cole .... Billy Moore
? Vithaya Pansringarm .... Oficer Preecha
? Billy Moore ....
? Somlock Kamsing .... Suthin
? Pornchanok Mabklang .... Fame
? Sakda Niamhom .... Saiyok
? Komsan Polsan .... Patumsuk
? Chaloemporn Sawatsuk .... M


Dane Techniczne

Video
ID : 1
Format : AVC
Format/Info : Advanced Video Codec
Format profile : High@L4
Format settings : CABAC / 5 Ref Frames
Format settings, CABAC : Yes
Format settings, ReFrames : 5 frames
Codec ID : V_MPEG4/ISO/AVC
Duration : 1 h 56 min
Bit rate : 4 556 kb/s
Width : 1 918 pixels
Height : 802 pixels
Display aspect ratio : 2.40:1
Frame rate mode : Constant
Frame rate : 23.976 (24000/1001) FPS
Color space : YUV
Chroma subsampling : 4:2:0
Bit depth : 8 bits
Scan type : Progressive
Bits/(Pixel*Frame) : 0.124
Stream size : 3.71 GiB (92%)
Title : A.Prayer.Before.Dawn.2017.1080p.WEB-DL.DD5.1.H264-FGT
Language : English
Default : Yes
Forced : No
Color range : Limited
Color primaries : BT.709
Transfer characteristics : BT.709
Matrix coefficients : BT.709

Audio
ID : 2
Format : AC-3
Format/Info : Audio Coding 3
Codec ID : A_AC3
Duration : 1 h 56 min
Bit rate mode : Constant
Bit rate : 384 kb/s
Channel(s) : 6 channels
Channel positions : Front: L C R, Side: L R, LFE
Sampling rate : 48.0 kHz
Frame rate : 31.250 FPS (1536 SPF)
Bit depth : 16 bits
Compression mode : Lossy
Stream size : 321 MiB (8%)
Title : A.Prayer.Before.Dawn.2017.1080p.WEB-DL.DD5.1.H264-FGT
Language : English
Service kind : Complete Main
Default : Yes
Forced : No
Dostępne napisy
Brak napisów
Szczegóły torrenta
Tracker http://tracker.trackerfix.com:80/announce
Multitracker [ Pokaż ]
Kategoria: » » » [Zgłoś błąd]
Dodane 21-07-2018
Podziękowali:
0 użytkowników 
Podziękuj!
Pokaż / Ukryj pliki:
Nazwa pliku Rozmiar
A.Prayer.Before.Dawn.2017.1080p.WEB-DL.DD5.1.H264-FGT.mkv 4.03 GB
RARBG.txt 0.03 KB
2 plików
Brak komentarzy...
Bhaijaan Elo Re (2018) Bangla Full Movie 480p HDTVRip 350MB Download *Exclusive* | Djibouti | Databases